(Delta Blues / Spirituals) [CD] Son House - The Original Delta Blues - 1998, FLAC (tracks+.cue), lossless

Страницы:  1

Ответить
Автор
Сообщение

Скворец66

Стаж: 10 лет 3 месяца

Сообщений: 3377

Скворец66 · 26-Авг-11 15:25 (7 лет 10 месяцев назад, ред. 24-Ноя-16 00:06)

Son House - The Original Delta Blues (Series: Mojo Workin' - Blues For The Next Generation)
Жанр: Delta Blues / Spirituals
Носитель: CD
Год издания диска: 1998 Reissue, Remastered
Издатель (лейбл): Columbia/Legacy
Номер по каталогу: CK 65515
Страна: USA
Аудиокодек: FLAC (*.flac)
Тип рипа: tracks+.cue
Битрейт аудио: lossless
Продолжительность: 55:40
Источник (релизер): Источник - What.CD, релизер - Twofootputt1
Наличие сканов в содержимом раздачи: да
Треклист:
1. Death Letter
2. Pearline
3. Louise Mcghee
4. John the Revelator
5. Empire State Express
6. Preachin' Blues
7. Grinnin' in Your Face
8. Sundown
9. Levee Camp Moan
10. Pony Blues
11. Downhearted Blues
All tracks originally recorded April 12-15, 1965, New York City.
Лог создания рипа
Exact Audio Copy V1.0 beta 3 from 29. August 2011
EAC extraction logfile from 10. August 2013, 23:58
Son House / The Original Delta Blues
Used drive : SlimtypeDVD A DS8A2S Adapter: 1 ID: 0
Read mode : Secure
Utilize accurate stream : Yes
Defeat audio cache : Yes
Make use of C2 pointers : No
Read offset correction : 6
Overread into Lead-In and Lead-Out : No
Fill up missing offset samples with silence : Yes
Delete leading and trailing silent blocks : No
Null samples used in CRC calculations : Yes
Used interface : Native Win32 interface for Win NT & 2000
Gap handling : Appended to previous track
Used output format : User Defined Encoder
Selected bitrate : 1024 kBit/s
Quality : High
Add ID3 tag : No
Command line compressor : C:\Program Files (x86)\Exact Audio Copy\Flac\flac.exe
Additional command line options : -8 -V -T "ARTIST=%artist%" -T "TITLE=%title%" -T "ALBUM=%albumtitle%" -T "DATE=%year%" -T "TRACKNUMBER=%tracknr%" -T "GENRE=%genre%" -T "PERFORMER=%albuminterpret%" -T "COMPOSER=%composer%" %haslyrics%--tag-from-file=LYRICS="%lyricsfile%"%haslyrics% -T "ALBUMARTIST=%albumartist%" -T "DISCNUMBER=%cdnumber%" -T "TOTALDISCS=%totalcds%" -T "TOTALTRACKS=%numtracks%" -T "COMMENT=%comment%" %source% -o %dest%
TOC of the extracted CD
Track | Start | Length | Start sector | End sector
---------------------------------------------------------
1 | 0:00.00 | 4:21.55 | 0 | 19629
2 | 4:21.55 | 4:34.03 | 19630 | 40182
3 | 8:55.58 | 6:13.65 | 40183 | 68222
4 | 15:09.48 | 2:32.10 | 68223 | 79632
5 | 17:41.58 | 3:41.22 | 79633 | 96229
6 | 21:23.05 | 5:45.40 | 96230 | 122144
7 | 27:08.45 | 2:08.13 | 122145 | 131757
8 | 29:16.58 | 6:14.25 | 131758 | 159832
9 | 35:31.08 | 9:30.32 | 159833 | 202614
10 | 45:01.40 | 5:19.03 | 202615 | 226542
11 | 50:20.43 | 6:03.55 | 226543 | 253822
Track 1
Filename F:\Son House\01 Death Letter.wav
Pre-gap length 0:00:02.00
Peak level 77.5 %
Extraction speed 1.2 X
Track quality 100.0 %
Test CRC 1F68B123
Copy CRC 1F68B123
Accurately ripped (confidence 18) [6FC12201] (AR v2)
Copy OK
Track 2
Filename F:\Son House\02 Pearline.wav
Pre-gap length 0:00:01.82
Peak level 70.7 %
Extraction speed 1.2 X
Track quality 100.0 %
Test CRC 73FE11B2
Copy CRC 73FE11B2
Accurately ripped (confidence 19) [DDBA5981] (AR v2)
Copy OK
Track 3
Filename F:\Son House\03 Louise McGhee.wav
Pre-gap length 0:00:01.86
Peak level 72.0 %
Extraction speed 1.2 X
Track quality 100.0 %
Test CRC FD0D603A
Copy CRC FD0D603A
Accurately ripped (confidence 19) [EE169DE7] (AR v2)
Copy OK
Track 4
Filename F:\Son House\04 John The Revelator.wav
Pre-gap length 0:00:01.64
Peak level 78.1 %
Extraction speed 1.4 X
Track quality 100.0 %
Test CRC F7B5791F
Copy CRC F7B5791F
Accurately ripped (confidence 18) [734A0306] (AR v2)
Copy OK
Track 5
Filename F:\Son House\05 Empire State Express.wav
Pre-gap length 0:00:01.93
Peak level 66.8 %
Extraction speed 1.4 X
Track quality 100.0 %
Test CRC C6698D80
Copy CRC C6698D80
Accurately ripped (confidence 18) [02343685] (AR v2)
Copy OK
Track 6
Filename F:\Son House\06 Preachin' Blues.wav
Pre-gap length 0:00:01.82
Peak level 87.9 %
Extraction speed 1.5 X
Track quality 100.0 %
Test CRC 80C082C8
Copy CRC 80C082C8
Accurately ripped (confidence 18) [8727D2F9] (AR v2)
Copy OK
Track 7
Filename F:\Son House\07 Grinnin' In Your Face.wav
Pre-gap length 0:00:01.86
Peak level 99.9 %
Extraction speed 1.4 X
Track quality 100.0 %
Test CRC B6D9F0F6
Copy CRC B6D9F0F6
Accurately ripped (confidence 18) [F6469355] (AR v2)
Copy OK
Track 8
Filename F:\Son House\08 Sundown.wav
Pre-gap length 0:00:01.80
Peak level 75.9 %
Extraction speed 1.5 X
Track quality 100.0 %
Test CRC AFCB6FC4
Copy CRC AFCB6FC4
Accurately ripped (confidence 18) [A95D3B86] (AR v2)
Copy OK
Track 9
Filename F:\Son House\09 Levee Camp Moan.wav
Pre-gap length 0:00:01.86
Peak level 80.3 %
Extraction speed 1.5 X
Track quality 100.0 %
Test CRC 84AD0931
Copy CRC 84AD0931
Accurately ripped (confidence 18) [EBE26B57] (AR v2)
Copy OK
Track 10
Filename F:\Son House\10 Pony Blues.wav
Pre-gap length 0:00:02.60
Peak level 90.8 %
Extraction speed 1.4 X
Track quality 99.9 %
Test CRC E69CB12C
Copy CRC E69CB12C
Accurately ripped (confidence 18) [EAF24EFF] (AR v2)
Copy OK
Track 11
Filename F:\Son House\11 Downhearted Blues.wav
Pre-gap length 0:00:02.13
Peak level 84.9 %
Extraction speed 1.5 X
Track quality 100.0 %
Test CRC 882E2DC4
Copy CRC 882E2DC4
Accurately ripped (confidence 19) [261BCBD5] (AR v2)
Copy OK
All tracks accurately ripped
No errors occurred
End of status report
---- CUETools DB Plugin V2.1.3
[CTDB TOCID: Dy6DrXGAZrhlsLoNciHt4_y5hLU-] found, Submit result: Dy6DrXGAZrhlsLoNciHt4_y5hLU- has been confirmed
[0decf0f2] (12/13) Accurately ripped
[fc1faaf5] (01/13) No match
==== Log checksum 56D7B507192AA52774265634CF62DDD5B955A6FE4E6C646F6C0628A04B8680B1 ====
Содержание индексной карты (.CUE)
REM GENRE Blues
REM DATE 1998
REM DISCID 7C0D380B
REM COMMENT "ExactAudioCopy v1.0b3"
CATALOG 0000000000000
PERFORMER "Son House"
TITLE "The Original Delta Blues"
FILE "01 Death Letter.wav" WAVE
TRACK 01 AUDIO
TITLE "Death Letter"
PERFORMER "Son House"
ISRC H2KM16500262
INDEX 01 00:00:00
TRACK 02 AUDIO
TITLE "Pearline"
PERFORMER "Son House"
ISRC H2KM16500263
INDEX 00 04:19:68
FILE "02 Pearline.wav" WAVE
INDEX 01 00:00:00
TRACK 03 AUDIO
TITLE "Louise McGhee"
PERFORMER "Son House"
ISRC H2KM16500264
INDEX 00 04:32:13
FILE "03 Louise McGhee.wav" WAVE
INDEX 01 00:00:00
TRACK 04 AUDIO
TITLE "John The Revelator"
PERFORMER "Son House"
ISRC H2KM16500265
INDEX 00 06:12:17
FILE "04 John The Revelator.wav" WAVE
INDEX 01 00:00:00
TRACK 05 AUDIO
TITLE "Empire State Express"
PERFORMER "Son House"
ISRC H2KM16500266
INDEX 00 02:30:15
FILE "05 Empire State Express.wav" WAVE
INDEX 01 00:00:00
TRACK 06 AUDIO
TITLE "Preachin' Blues"
PERFORMER "Son House"
ISRC H2KM16500267
INDEX 00 03:39:35
FILE "06 Preachin' Blues.wav" WAVE
INDEX 01 00:00:00
TRACK 07 AUDIO
TITLE "Grinnin' In Your Face"
PERFORMER "Son House"
ISRC H2KM16500268
INDEX 00 05:43:50
FILE "07 Grinnin' In Your Face.wav" WAVE
INDEX 01 00:00:00
TRACK 08 AUDIO
TITLE "Sundown"
PERFORMER "Son House"
ISRC H2KM16500269
INDEX 00 02:06:28
FILE "08 Sundown.wav" WAVE
INDEX 01 00:00:00
TRACK 09 AUDIO
TITLE "Levee Camp Moan"
PERFORMER "Son House"
ISRC H2KM16500270
INDEX 00 06:12:35
FILE "09 Levee Camp Moan.wav" WAVE
INDEX 01 00:00:00
TRACK 10 AUDIO
TITLE "Pony Blues"
PERFORMER "Son House"
ISRC H2KM16500271
INDEX 00 09:27:62
FILE "10 Pony Blues.wav" WAVE
INDEX 01 00:00:00
TRACK 11 AUDIO
TITLE "Downhearted Blues"
PERFORMER "Son House"
ISRC H2KM16500272
INDEX 00 05:16:68
FILE "11 Downhearted Blues.wav" WAVE
INDEX 01 00:00:00
Лог проверки качества
AUDIOCHECKER v2.0 beta (build 457) - by Dester - [email protected]
~~~~~~~~~~~~~~~~~~~~~~~~~~~~~~~~~~
-=== НЕ РЕДАКТИРУЙТЕ ЭТОТ ФАЙЛ! ===-
Путь: ...\Son House - The Original Delta Blues (1998)
01 -=- 01 Death Letter.flac -=- CDDA (99%)
02 -=- 02 Pearline.flac -=- CDDA (100%)
03 -=- 03 Louise McGhee.flac -=- CDDA (100%)
04 -=- 04 John The Revelator.flac -=- CDDA (100%)
05 -=- 05 Empire State Express.flac -=- CDDA (100%)
06 -=- 06 Preachin' Blues.flac -=- CDDA (100%)
07 -=- 07 Grinnin' In Your Face.flac -=- CDDA (100%)
08 -=- 08 Sundown.flac -=- CDDA (100%)
09 -=- 09 Levee Camp Moan.flac -=- CDDA (100%)
10 -=- 10 Pony Blues.flac -=- CDDA (100%)
11 -=- 11 Downhearted Blues.flac -=- CDDA (100%)
Сводка 99,91% CDDA
122905684
Доп. информация: Такой коламбиевский сборник записей 1965 г. легенды дельта-блюза - великого Son House, Allmusic дал 4,5 звезды и написал, что это прекрасная "дистилляция" двойного сборника - Father of the Delta Blues: The Complete 1965 Sessions , (имеющегося на трекере, спасибо уважаемому zhconst).
Вобщем, я это всё к тому, что если б это был не Son House , я б не выкладывал, но Son House тоже много не бывает.
(Теперь наконец это полностью правильный рип, в предыдущем "правильном" файлы не были пронумеровны, и я делал это вручную, а заодно приводил в соответствие и cue-файл.)
Приятного всем прослушивания!
Son House на трекере
Об исполнителе (группе)
Очень интересно и подробно о великом Сан Хаусе написал в своей книге "Пришествие блюза. Том 1" замечательный писатель Валерий Писигин - Глава третья - Эдди «Сан» Хаус - http://pisigin.ru/books/prishestvie-blyuza-tom1/5/glava-tretya-eddi-san-xaus
(Спасибо Валерию Писигину и его сайту за предоставленную информацию)
Об альбоме (сборнике)
Review of Allmusic
by Stephen Thomas Erlewine
Columbia/Legacy's The Original Delta Blues is a fine distillation of the label's double-disc set Father of the Delta Blues, containing 16 highlights from that comprehensive overview of his '60s rediscovery recordings. Curious listeners who are intimidated by the size of the previous set are advised to pick up this terrific sampler instead.
Мои раздачи
Download
Для скачивания .torrent файлов необходима регистрация
Сайт не распространяет и не хранит электронные версии произведений, а лишь предоставляет доступ к создаваемому пользователями каталогу ссылок на торрент-файлы, которые содержат только списки хеш-сумм
[Профиль]  [ЛС] 

Smal_AV

Стаж: 10 лет 7 месяцев

Сообщений: 1620

Smal_AV · 28-Авг-11 18:42 (спустя 2 дня 3 часа)

It's Original Delta Blues!:)
[Профиль]  [ЛС] 

Скворец66

Стаж: 10 лет 3 месяца

Сообщений: 3377

Скворец66 · 29-Авг-11 17:31 (спустя 22 часа)

zhconst
blues_man
Smal_AV
Спасибище за отзывы, дорогие друзья-блюзмены!
Спасибо также всем, кто скачал и сказал спасибо, и тем, кто скачал и не сказал спасибо, (уверен, что у Вас были на то причины)! Очень рад, что пригодилось, и не зря старался, оформляя раздачу.
[Профиль]  [ЛС] 

Скворец66

Стаж: 10 лет 3 месяца

Сообщений: 3377

Скворец66 · 15-Ноя-11 23:29 (спустя 2 месяца 17 дней)

Внимание! Торрент файл перезалит 15.11.2011 г. в 17.55 ч. (МСК) в связи с заменой на правильный рип.
[Профиль]  [ЛС] 

Timbyte

Стаж: 8 лет 3 месяца

Сообщений: 10

Timbyte · 18-Авг-15 22:46 (спустя 3 года 9 месяцев)

Спасибо! Что не ищу, все на трекере есть. Приятно знать что еще есть настоящие любители хорошей музыки. Останусь на раздаче.
[Профиль]  [ЛС] 

Smal_AV

Стаж: 10 лет 7 месяцев

Сообщений: 1620

Smal_AV · 18-Авг-15 23:29 (спустя 43 мин.)

Скворец66
Кстати, проверь ссылку в доп. информации - она не работает...
[Профиль]  [ЛС] 

zhconst

Top Seed 04* 320r

Стаж: 11 лет

Сообщений: 4322

zhconst · 19-Авг-15 02:30 (спустя 3 часа)

Smal_AV
Всё просто, старик... Ссылка на сомнительный рип, который я в 2013-м заменил на родной...
[Профиль]  [ЛС] 

Скворец66

Стаж: 10 лет 3 месяца

Сообщений: 3377

Скворец66 · 09-Май-16 04:11 (спустя 8 месяцев)

Smal_AV
zhconst
Теперь - порядок, ссылку обновил, а заодно и рип тоже.
Внимание! Торрент файл перезалит 09.05.2016 г. в 04:07 ч. (МСК) в связи с заменой на правильный рип!!!
[Профиль]  [ЛС] 
 
Ответить
Loading...
Error