(Score) Мелодии белой ночи и Звезда пленительного счастья (Исаак Шварц) - 2002 (1975), FLAC (image+.cue), lossless

Страницы:  1

Ответить
Автор
Сообщение

Voynar

Top Seed 02* 80r

Стаж: 10 лет 8 месяцев

Сообщений: 740

Voynar · 22-Авг-11 18:34 (7 лет 10 месяцев назад, ред. 29-Мар-12 14:10)

Мелодии белой ночи и Звезда пленительного счастья
Жанр: Score
Композитор: Исаак Шварц
Год выпуска диска: 2002
Год выпуска фильма: 1975
Страна-производитель диска: Россия
Издатель (лейбл): ROFF Технолоджис
Аудиокодек: FLAC (*.flac)
Тип рипа: image+.cue
Битрейт аудио: lossless
Продолжительность: 47'54"
Источник: собственный рип
Наличие сканов в содержимом раздачи: да
Треклист:
01. Прелюдия (из к/ф "Мелодии белой ночи")
02. Концертино (из к/ф "Мелодии белой ночи")
03. Эрмитаж (из к/ф "Мелодии белой ночи")
04. Прогулка по ночному городу (из к/ф "Мелодии белой ночи")
05. Телеграф (из к/ф "Мелодии белой ночи")
06. Ночной фейерверк (из к/ф "Мелодии белой ночи")
07. Праздник Бон (из к/ф "Мелодии белой ночи")
08. Увертюра (из к/ф "Звезда пленительного счастья")
09. Тема декабристов (из к/ф "Звезда пленительного счастья")
10. Песенка кавалергарда (из к/ф "Звезда пленительного счастья")
11. Тема Волконской (из к/ф "Звезда пленительного счастья")
12. Романс "Качели" (из к/ф "Звезда пленительного счастья")
13. Встреча Волконской и Трубецкой в Сибири (из к/ф "Звезда пленительного счастья")
14. Воспоминания о вальсе, или гражданская казнь (из к/ф "Звезда пленительного счастья")
15. Соединение (тема Сибири) (из к/ф "Звезда пленительного счастья")
16. Финал (из к/ф "Звезда пленительного счастья")
Лог создания рипа
Exact Audio Copy V0.99 prebeta 4 from 23. January 2008
Отчёт EAC об извлечении, выполненном 11. июля 2011, 10:00
Исаак Шварц / Мелодии Белой Ночи
Дисковод: MATSHITADVD-RAM UJ-852S Adapter: 0 ID: 0
Режим чтения : Достоверность
Использование точного потока : Да
Отключение кэша аудио : Да
Использование указателей C2 : Нет
Коррекция смещения при чтении : 102
Способность читать области Lead-in и Lead-out : Нет
Заполнение пропущенных сэмплов тишиной : Да
Удаление блоков с тишиной в начале и конце : Нет
При вычислениях CRC использовались нулевые сэмплы : Да
Интерфейс : Установленный внешний ASPI-интерфейс
Выходной формат : Внутренние WAV-операции
Формат сэмплов : 44.100 Гц; 16 бит; стерео
Смещение при сжатии : 0
TOC извлечённого CD
Трек | Старт | Длительность | Начальный сектор | Конечный сектор
---------------------------------------------------------------------
1 | 0:00.00 | 4:31.42 | 0 | 20366
2 | 4:31.42 | 4:55.53 | 20367 | 42544
3 | 9:27.20 | 2:41.00 | 42545 | 54619
4 | 12:08.20 | 3:26.62 | 54620 | 70131
5 | 15:35.07 | 1:58.45 | 70132 | 79026
6 | 17:33.52 | 3:53.50 | 79027 | 96551
7 | 21:27.27 | 1:43.73 | 96552 | 104349
8 | 23:11.25 | 2:44.35 | 104350 | 116684
9 | 25:55.60 | 2:51.45 | 116685 | 129554
10 | 28:47.30 | 4:02.00 | 129555 | 147704
11 | 32:49.30 | 1:55.30 | 147705 | 156359
12 | 34:44.60 | 2:35.20 | 156360 | 168004
13 | 37:20.05 | 1:53.32 | 168005 | 176511
14 | 39:13.37 | 2:30.18 | 176512 | 187779
15 | 41:43.55 | 3:02.32 | 187780 | 201461
16 | 44:46.12 | 3:08.20 | 201462 | 215581
Характеристики диапазона извлечения и сообщения об ошибках
Выбранный диапазон
Имя файла C:\Users\Igot\Desktop\Исаак Шварц - Мелодии Белой Ночи\Исаак Шварц - Мелодии Белой Ночи.wav
Пиковый уровень 100.0 %
Качество диапазона 100.0 %
CRC копии CA098BC4
Копирование... OK
Ошибок не произошло
Конец отчёта
Доп. информация: Удивительно, что на трекере до сих пор нет лосслесс-варианта этого замечательного альбома. Восполняю сей пробел.
Божественно прекрасная музыка. Как все же гениально Шварцу удалось передать в музыке дух Санкт-Петербурга!
Download
Для скачивания .torrent файлов необходима регистрация
Сайт не распространяет и не хранит электронные версии произведений, а лишь предоставляет доступ к создаваемому пользователями каталогу ссылок на торрент-файлы, которые содержат только списки хеш-сумм
[Профиль]  [ЛС] 

andrkis

Стаж: 9 лет 5 месяцев

Сообщений: 61


andrkis · 20-Фев-12 08:14 (спустя 5 месяцев)

Огромнейшее спасибо! Хочется больше музыки этого прекрасного композитора в lossless...
[Профиль]  [ЛС] 

Senor Peligro

Стаж: 10 лет 10 месяцев

Сообщений: 5100

Senor Peligro · 23-Фев-12 11:56 (спустя 3 дня)

погуглил
"Песня Кавалергарда"
исполняет
80% - Владимир Качан
20% - Александр Хочинский
кто?
[Профиль]  [ЛС] 

A_Otmakhov

Стаж: 8 лет 6 месяцев

Сообщений: 1


A_Otmakhov · 19-Апр-12 08:41 (спустя 1 месяц 24 дня)

Огромное спасибо за возможность послушать такую замечательную музыку!
[Профиль]  [ЛС] 

Mavritanetz

Стаж: 7 лет 10 месяцев

Сообщений: 6


Mavritanetz · 06-Июл-12 17:20 (спустя 2 месяца 17 дней)

Он ещё сочинил и для фильма "Сто дней после детства". Там не менее прекрасная музыка. А вот где её найти в хорошем качестве? Суррогаты есть.
[Профиль]  [ЛС] 

rusodepaso

Стаж: 9 лет 7 месяцев

Сообщений: 1


rusodepaso · 20-Сен-12 03:39 (спустя 2 месяца 13 дней)

Amasegenallo! (If you are really from Ethiopia
[Профиль]  [ЛС] 

ka81

Стаж: 12 лет 11 месяцев

Сообщений: 1102

ka81 · 20-Фев-13 11:34 (спустя 5 месяцев)

Senor Peligro писал(а):
51388478погуглил
"Песня Кавалергарда"
исполняет
80% - Владимир Качан
20% - Александр Хочинский
кто?
не могу утверждать, но почитав множество источников решил подписать как Владимир Качан
[Профиль]  [ЛС] 

ARHBCLAN

Стаж: 11 лет 10 месяцев

Сообщений: 1698

ARHBCLAN · 13-Май-13 07:50 (спустя 2 месяца 20 дней, ред. 13-Май-13 10:12)

Спасибо
Но сканов нету, зачем писать, что есть?
Даже BACK COVER нету
[Профиль]  [ЛС] 

pikeblues

Стаж: 9 лет 4 месяца

Сообщений: 390


pikeblues · 13-Дек-13 09:26 (спустя 7 месяцев)

Качан. Голоса разные, ребята.
[Профиль]  [ЛС] 

AuxDeux

Стаж: 10 лет 2 месяца

Сообщений: 520


AuxDeux · 20-Фев-14 11:15 (спустя 2 месяца 7 дней, ред. 20-Фев-14 11:15)

огромное спасибо!
мелодия
04. Прогулка по ночному городу (из к/ф "Мелодии белой ночи")
просто божественна
пока не скачал этот релиз, считал, что её автор - кто-то из классиков XIX века
[Профиль]  [ЛС] 

sv5090

Стаж: 8 лет 7 месяцев

Сообщений: 14

sv5090 · 02-Май-14 19:01 (спустя 2 месяца 10 дней)

Его тему из кинофильма "Выйти замуж за капитана" в хорошем качестве, где можно надыбать, никто не подскажет?
[Профиль]  [ЛС] 

snb

Стаж: 11 лет 10 месяцев

Сообщений: 495


snb · 04-Фев-15 14:24 (спустя 9 месяцев)

Огромное спасибо за lossless!!!
А ковров не наваяете? Уж очень хочется хороший комплект.
[Профиль]  [ЛС] 

olegau1

Стаж: 9 лет 7 месяцев

Сообщений: 217

olegau1 · 15-Мар-17 14:58 (спустя 2 года 1 месяц)

https://www.discogs.com/%D0%98%D1%81%D0%B0%D0%B0%D0%BA-%D0%A8%D0%B2%D0%B0%D1%80%D.../release/7402497
[Профиль]  [ЛС] 
 
Ответить
Loading...
Error